#TITLE:I Will Be Very Good To You;
#SUBTITLE:;
#ARTIST:Cool;
#TITLETRANSLIT:I Will Be Very Good To You;
#SUBTITLETRANSLIT:;
#ARTISTTRANSLIT:Cool;
#CREDIT:;
#BANNER:I Will Be Very Good To You-bn.png;
#BACKGROUND:I Will Be Very Good To You-bg.png;
#LYRICSPATH:;
#CDTITLE:pm4cd.png;
#MUSIC:I Will Be Very Good To You.mp3;
#OFFSET:-0.020;
#SAMPLESTART:69.060;
#SAMPLELENGTH:20.000;
#SELECTABLE:YES;
#BPMS:0.000=140.000,223.500=70.000,225.500=140.000,289.500=70.000,297.500=140.000,373.500=70.000,375.500=140.000,467.500=70.000,469.500=140.000;
#STOPS:;
#BGCHANGES:;
// cache tags:
#FIRSTBEAT:3.250;
#LASTBEAT:473.250;
#SONGFILENAME:Songs/Music V.I.P ^_^/I Will Be Very Good To You/I Will Be Very Good To You.sm;
#HASMUSIC:1;
#HASBANNER:1;
#MUSICLENGTH:214.812;
// end cache tags

//---------------dance-single - ----------------
#NOTES:
     dance-single:
     :
     Hard:
     17:
     1.000,1.000,1.000,0.191,1.000,1187.000,647.000,41.000,0.000,201.000:
0000
0000
0000
0000
0000
0000
0000
0000
0000
0000
0000
0000
0000
1100
0000
0010
,
0000
0001
0000
0100
0000
0000
0000
0001
0000
0000
0000
1000
0000
0100
0000
0010
,
0000
0100
0000
0010
0000
0000
0000
1000
0000
0100
0000
0000
0000
0001
0000
0010
,
0000
0100
0000
0001
0000
0000
0000
0100
0000
0000
0000
0001
0000
0100
0000
0010
,
0000
1000
0000
0010
0000
0000
0000
0100
0000
0200
0000
0000
0000
1311
0000
0110
,
0000
0000
0000
0101
0000
0000
0000
1010
0000
0000
0000
0011
0000
0000
0000
1100
,
0000
0010
0000
0100
0000
0000
0000
0001
0000
0000
0000
0000
0000
1000
0000
0101
,
0000
0000
0000
1010
0000
0000
0000
1001
0000
0000
0000
0110
0000
0000
0000
0011
,
0000
0100
0000
1000
0000
0000
0000
0002
0000
0020
0000
0000
0000
1133
0000
0001
,
0000
0010
0000
0101
0000
0010
0000
0011
0000
1010
0000
0110
0000
1001
0000
0100
,
0000
0011
0000
1001
0000
0100
0000
0011
0000
1100
0000
0001
0100
1010
0000
0100
,
0000
0011
0000
1010
0000
0100
0000
0011
0000
0010
0000
1100
0000
0110
0110
0110
,
0000
0001
0000
0110
0000
0001
0000
1100
0000
0011
0000
1000
0100
0011
0000
0100
,
0000
1001
0000
0110
0000
0001
0000
1010
0000
0110
0000
1001
0000
0101
0000
0010
,
0000
1100
0000
0110
0000
0001
0000
1100
0000
0101
0000
0001
0010
1100
0000
0001
,
0000
0110
0000
1010
0000
0100
0000
0011
0000
0101
0000
0110
0000
1100
0110
0011
,
0000
1000
0000
0011
0000
0100
0000
0011
0000
0100
0000
1010
0100
2000
0000
0100
,
0000
0010
0000
0101
0000
0000
0000
0001
3000
0100
0000
1010
0000
0101
0000
0100
,
0000
0010
0000
1100
0000
0000
0000
1001
0000
0010
0000
0101
0010
0002
0000
0010
,
0000
0100
0000
1010
0000
0000
0000
1000
0000
0100
0003
0110
0000
1001
0000
0100
,
0000
1000
0000
0010
0000
0000
0000
0101
0000
0110
0000
1010
0000
1001
0000
0000
,
0100
0011
0000
1100
0000
0000
0000
1001
0000
0110
0000
0011
0000
1001
0000
1010
,
0000
0101
0000
1010
0000
0000
0000
1100
0000
0101
0000
1000
0010
0101
0000
0000
,
0010
0101
0000
1010
0000
0000
0000
1001
0000
1010
0000
0101
0000
1100
0110
1100
,
0000
1001
0000
0101
0000
1010
1100
1010
0000
0101
0011
0101
0011
0101
0010
0001
,
0010
1000
0100
0010
0100
0010
0100
1000
0100
0010
0001
0010
0100
1000
0100
0010
,
0001
0010
0100
0010
0001
0010
0100
1000
0010
0100
0010
1100
1100
1101
0010
0100
,
0010
1000
0100
0001
1000
0010
0100
0010
0001
1000
0100
0010
0001
0110
0110
0110
,
0001
0010
0001
0100
1000
0010
0100
0001
1000
0010
0100
1010
0101
1011
0100
0010
,
0100
0001
0010
0100
1000
0010
0100
0001
1000
0100
0010
0001
0100
0010
1000
0001
,
0010
0100
0010
0001
0100
0010
0100
1000
0100
0001
0010
1001
1010
1100
0010
0001
,
0010
0100
0000
0000
0000
1000
0100
0010
0001
0110
0000
1001
0000
0101
1010
0101
,
0000
1010
0000
0010
0000
0011
0101
1001
0000
0101
0110
0101
0110
2101
0000
0010
,
0000
0101
0000
0110
0000
0000
0000
0101
0000
0011
0000
0110
3000
1021
0000
0100
,
0000
1001
0000
1100
0000
0000
0000
0101
0000
1100
0000
1001
1130
0211
0000
1000
,
0000
0011
0000
1010
0000
0000
0000
0011
0000
1001
0000
1010
0300
1102
0110
1010
,
0000
0100
0000
1010
0000
0000
0000
0110
0000
1100
0000
1010
0113
2011
0000
0100
,
0000
0011
0000
0110
0000
0000
0000
0101
0000
0011
0000
0110
3000
1201
0000
0010
,
0000
1001
0000
0011
0000
0000
0000
1010
0000
0011
0000
1001
1310
1102
0000
0010
,
0000
1100
0000
0110
0000
1000
0000
0110
0000
1100
0000
1110
0003
0000
0000
1011
,
0000
1011
0000
0000
0000
1100
0101
0110
0000
0011
0110
1100
0000
1011
0000
0110
,
0000
1001
0000
1010
0000
0101
0000
0011
0000
1100
0000
0101
0000
0110
0000
0101
,
0000
1001
0000
1010
0000
1100
0000
0101
0000
1010
0000
1001
0100
0011
0000
0110
,
0000
1100
0000
1001
0000
0101
0000
1010
0000
0110
0000
1010
0000
0101
1010
0110
,
0000
0101
0000
1001
0000
0000
0000
1100
0000
0011
0110
0011
0000
1201
0000
1010
,
0000
0011
0000
1001
0000
1010
0000
0011
0000
1001
0000
1010
0300
0102
0000
0110
,
0000
1100
0000
1010
0000
0110
0000
1010
0000
0110
0000
1100
1013
1200
0000
1001
,
0000
1010
0000
0011
0000
1001
0000
0011
0000
1001
0000
1010
0300
0011
0110
1100
,
0000
0001
0000
0110
0000
1100
1100
0011
0011
1100
0011
1100
0011
1110
0001
0100
,
0010
0100
0010
1000
0100
0001
0100
0010
0001
0100
0001
0010
0100
1000
0100
1000
,
0100
1000
0010
0100
0001
0100
0010
0100
0001
0010
0100
1010
1010
1010
0100
0010
,
0001
0100
1000
0010
0100
0010
0001
1000
0001
1000
0100
0001
0010
0101
0101
0101
,
0010
0001
1000
0100
0010
0001
0010
0100
0010
0100
1000
0110
0110
2001
0100
0010
,
0100
0001
0010
0100
0010
0001
0100
0010
0001
0010
0100
0001
3010
0201
0010
1000
,
0001
0010
1000
0010
0001
1000
0010
1000
0001
0010
1000
0011
0311
0011
0100
1000
,
0000
0010
0000
1001
0000
0010
0000
0101
0000
1010
0000
0011
0000
1210
0000
0000
,
0000
0000
0000
0020
0000
1331
0000
0100
0000
0010
0000
0101
0000
0010
0000
1001
,
0000
0110
0000
1100
0000
0011
0000
0100
0000
0110
0000
1001
0000
0100
0000
1010
,
0000
0101
0000
0011
0100
1001
0000
0001
0000
1010
0000
1100
0000
0010
0000
0011
,
0000
1100
0000
0110
0000
1001
0010
0101
0000
0010
0000
1100
0000
0001
0000
1010
,
0000
0101
0000
1010
0001
0110
0000
1000
0000
0100
0000
1010
0000
0100
0000
0011
,
0000
1100
0000
0101
0000
1001
0000
0100
0000
1000
0000
0110
0000
0001
0000
1010
,
0000
1001
0000
0110
1000
0011
0000
0100
0000
0001
0000
1100
0000
0010
0000
0101
,
0000
1001
0000
0100
0000
0101
0010
1001
0000
0100
0000
1001
0000
0010
0000
1100
,
0000
0011
0000
1100
0010
1002
0000
0100
0000
1100
0000
1010
0000
0000
0003
1001
,
0000
0110
0000
1100
0000
0101
0000
0010
0000
0100
0000
0011
0000
0000
0000
0101
,
0000
1100
0000
0011
0100
2001
0000
0010
0000
0100
0000
0011
0000
0000
3000
0011
,
0000
1001
0000
1100
0000
0111
0000
1000
0000
0100
0000
0010
0000
0000
0000
0101
,
0000
0101
0000
0101
0000
0111
0000
1000
0000
0100
0000
0011
0000
0100
0000
0011
,
0000
1001
0000
1100
0000
0110
0000
1001
0000
0101
0000
1010
0000
0000
0000
0011
,
0000
0011
0000
1100
0010
0101
0000
0001
0000
0100
0000
1001
0000
0010
0000
0110
,
0000
1001
0000
1010
0000
0101
1010
1100
0000
0001
0000
0010
0000
1010
1001
1100
,
0000
1001
1001
0110
0110
1012
0100
0010
0100
1000
0010
0100
1000
0123
1000
0001
,
1000
0100
1000
0001
0100
2031
0100
0010
0001
0010
0001
0100
0010
3201
0010
0001
,
1000
0010
1000
0010
0001
1311
0000
0100
0000
1000
0000
0101
0000
0010
0000
1100
,
0000
0110
0000
0011
0000
1001
0000
0010
0000
0100
0000
1001
0000
0010
0000
1100
,
0000
0110
0000
1100
0010
0101
0000
0010
0000
0100
0000
0101
0000
0010
0000
1001
,
0000
0110
0000
1101
0000
0000
0000
1011
0000
1011
0000
0000
0000
1001
1001
0110
,
0110
1001
0110
1001
0110
1101
0000
0011
0000
1001
0000
1010
0000
0101
0000
0011
,
0000
0110
0000
1100
0000
0111
0000
1100
0000
0101
0000
1001
0000
1010
0000
0110
,
0000
0011
0000
0110
0000
1101
0000
0011
0000
0101
0000
1010
0000
1001
0000
1100
,
0000
0110
0000
0011
0000
1110
1010
1010
0000
1001
0000
0110
0000
0000
0000
1100
,
0000
0101
0000
1010
0101
0112
0000
1010
0000
1100
0000
0110
0000
1100
0000
0110
,
0000
1100
0000
1010
0003
0211
0000
0011
0000
1001
0000
1010
0000
1001
0000
0011
,
0000
1010
0000
0311
0110
2101
0000
0011
0000
0110
0000
0101
0000
0110
0000
0011
,
0000
0101
0000
0110
3000
1001
1010
1100
0000
0010
0000
0100
0000
1010
1010
0101
,
0101
1010
0101
1010
0101
1011
0100
1000
0010
0100
0010
0001
0010
1000
0100
0010
,
0100
0010
0001
0010
0100
1001
0010
0001
0100
0010
0100
1000
0100
0010
0001
0010
,
1000
0001
0010
1100
1100
1100
0010
0001
1000
0100
0010
0100
0010
0100
1000
0001
,
0010
0100
1000
0100
0010
0101
1010
0101
0010
0100
1000
0100
0010
0001
0010
0100
,
0010
1100
0110
0011
0101
2011
0100
0010
0100
0001
0010
0100
0010
0001
0010
0100
,
0001
0100
0010
3001
0100
1012
0100
1000
0010
0100
1000
0100
0010
1000
0100
1000
,
0100
0010
0100
1010
1103
0121
1000
0100
1000
0001
1000
0001
0100
0001
0100
1000
,
0100
0001
1000
0100
1030
0211
0000
0000
0000
0000
0000
0020
0000
1331
0000
0100
,
0000
1010
0000
0011
0000
0100
0000
1010
0000
0101
0000
0011
0000
1100
0000
0001
,
0000
1010
0000
1100
0000
0010
0000
0101
0000
1010
0000
0011
1001
0011
0000
1000
,
0000
0101
0000
0011
0000
0100
0000
0011
0000
1100
0000
0110
0000
1001
1010
0011
,
0000
1001
0000
0000
0000
0101
0000
0000
0000
0110
0000
1001
0110
1001
0000
0100
,
0000
0011
0000
1100
0000
0001
0000
1010
0000
0110
0000
1001
0000
0101
0000
0010
,
0000
1100
0000
0110
0000
0001
0000
0110
0000
1100
0000
1001
1010
0110
0000
0001
,
0000
0110
0000
1100
0000
0010
0000
0011
0000
1001
0000
1110
0000
0000
0000
0111
,
0000
0111
0000
0000
0000
0110
0110
0011
0011
0110
1100
0110
0011
1110
0001
0010
,
0100
0001
1000
0110
0001
0100
0010
1001
0100
1010
0001
0110
1000
0101
0010
0001
,
1000
0100
0010
1100
0010
0001
0100
0011
0100
1010
0100
0011
0011
0011
0100
0010
,
1000
0100
0010
0101
0010
1000
0100
1010
0001
1100
0010
1001
0010
1100
1100
1100
,
0010
0100
1000
0101
0010
0100
0001
0010
0100
1010
0100
1010
0110
2110
0001
0010
,
0100
0010
0001
0110
0001
0010
0100
0011
0100
0011
0100
0011
3100
1021
0100
1000
,
0001
1000
0001
1100
0001
0100
1000
0101
1000
0101
1000
0101
0131
1102
0010
1000
,
0100
0010
0100
1010
0100
0010
1000
0110
1000
0110
1000
0110
1003
0110
0011
1001
,
0000
0100
0000
0011
0000
0011
0011
1100
1100
0110
0110
1001
1001
1110
0000
0101
,
0000
1001
0000
1110
0000
0101
0000
1011
0000
1101
0000
0111
0000
1110
0000
0110
,
0000
0101
0000
1110
0000
1001
0000
0111
0000
1101
0000
1011
1100
0111
0000
1100
,
0000
0011
0000
0111
0000
1001
0000
1101
0000
1110
0000
1011
0000
1110
0101
1011
,
0000
0110
0000
1011
0000
1100
0000
0111
0000
1101
0000
0111
1100
1120
0000
0101
,
0000
1001
0000
1101
0000
0101
0000
1101
0000
0101
0000
1101
0030
0211
0000
0011
,
0000
1001
0000
1011
0000
0011
0000
1011
0000
1010
0000
1011
1301
2110
0000
0101
,
0000
0011
0000
0111
0000
0011
0000
0111
0000
0011
0000
0111
3000
1102
0000
0000
,
0000
0000
0000
0020
0000
1133
0000
0001
0000
0010
0000
0101
0000
1000
0000
0011
,
0000
0110
0000
1100
0000
1111
0000
0000
0000
0000
0000
0000
0000
0000
0000
0000
;

//---------------dance-single - ----------------
#NOTES:
     dance-single:
     :
     Medium:
     1:
     0.000,0.000,0.000,0.000,0.000,0.000,0.000,0.000,0.000,0.000:
0000
0000
0000
0000
;
